osu file format v14

[General]
AudioFilename: My Love.mp3
AudioLeadIn: 1500
PreviewTime: 53460
Countdown: 0
SampleSet: Soft
StackLeniency: 0.7
Mode: 0
LetterboxInBreaks: 1
WidescreenStoryboard: 0

[Editor]
DistanceSpacing: 1.4
BeatDivisor: 4
GridSize: 4
TimelineZoom: 1

[Metadata]
Title:My Love
TitleUnicode:My Love
Artist:Kuba Oms
ArtistUnicode:Kuba Oms
Creator:CloudSplash16
Version:Hard
Source:
Tags:monthly beatmapping contest ADHD electronic folk funk pop soul
BeatmapID:399234
BeatmapSetID:163924

[Difficulty]
HPDrainRate:6
CircleSize:4
OverallDifficulty:6
ApproachRate:7
SliderMultiplier:1.4
SliderTickRate:1

[Events]
//Background and Video events
0,0,"bg.jpg",0,0
//Break Periods
2,152250,158850
//Storyboard Layer 0 (Background)
//Storyboard Layer 1 (Fail)
//Storyboard Layer 2 (Pass)
//Storyboard Layer 3 (Foreground)
//Storyboard Sound Samples
//Background Colour Transformations
3,100,163,162,255

[TimingPoints]
2250,468.75,4,2,0,50,1,0
9750,-100,4,2,0,55,0,0
24515,-100,4,2,0,60,0,0
39750,-100,4,2,0,65,0,0
54750,-100,4,2,0,70,0,1
69750,-100,4,2,0,55,0,0
84750,-100,4,2,0,60,0,0
99750,-100,4,2,0,65,0,0
114750,-100,4,2,0,70,0,1
129750,-133.333333333333,4,2,0,55,0,0
144750,-100,4,2,0,60,0,0
163500,-100,4,2,0,65,0,0
167250,-100,4,2,0,75,0,1
182015,-100,4,2,0,70,0,0
182250,-100,4,2,0,75,0,1
195843,-100,4,1,0,60,0,1
197250,-100,4,2,0,75,0,0

[Colours]
Combo1 : 194,250,80
Combo2 : 250,52,91
Combo3 : 252,243,82
Combo4 : 253,159,175
Combo5 : 77,224,251

[HitObjects]
400,72,2250,5,4,0:0:0:0:
112,312,4125,5,2,0:0:0:0:
400,312,6000,5,2,0:0:0:0:
152,56,7875,6,0,B|120:101|125:160|159:199,1,140,2|0,0:0|0:0,0:0:0:0:
244,208,8578,2,0,L|310:185,1,70,,,0:0:0:0:
180,280,9046,2,0,L|164:354,2,70,,,0:0:0:0:
204,184,9750,5,2,0:0:0:0:
342,45,10218,1,0,0:0:0:0:
480,183,10687,1,0,0:0:0:0:
292,244,11156,2,0,B|269:255|254:274|246:295,1,70,,,0:0:0:0:
156,336,11625,6,0,B|130:366|87:371|54:349|41:318,1,140,2|0,0:0|0:0,0:0:0:0:
40,219,12328,1,0,0:0:0:0:
164,180,12562,2,0,L|160:256,1,70,,,0:0:0:0:
80,136,13031,1,0,0:0:0:0:
80,136,13265,1,0,0:0:0:0:
160,80,13500,6,0,B|220:64|272:96|272:96|291:82,1,140,2|0,0:0|0:0,0:0:0:0:
291,82,14203,1,0,0:0:0:0:
200,199,14437,1,0,0:0:0:0:
200,199,14671,2,0,B|189:222|188:246|196:268,1,70,,,0:0:0:0:
256,344,15140,1,0,0:0:0:0:
328,244,15375,6,0,B|339:221|358:206|379:198,1,70,2|0,0:0|0:0,0:0:0:0:
256,192,15843,2,0,L|256:122,1,70,2|0,0:0|0:0,0:0:0:0:
184,244,16312,2,0,B|172:222|153:206|132:198,1,70,2|0,0:0|0:0,0:0:0:0:
63,267,16781,1,2,0:0:0:0:
132,336,17015,1,2,0:0:0:0:
256,344,17250,5,2,0:0:0:0:
394,205,17718,1,0,0:0:0:0:
255,66,18187,1,0,0:0:0:0:
116,204,18656,2,0,B|127:227|146:242|167:250,1,70,,,0:0:0:0:
264,249,19125,6,0,B|290:219|333:214|366:236|379:267,1,140,2|0,0:0|0:0,0:0:0:0:
408,360,19828,1,0,0:0:0:0:
312,339,20062,2,0,L|236:343,1,70,,,0:0:0:0:
148,372,20531,1,0,0:0:0:0:
148,372,20765,1,0,0:0:0:0:
188,282,21000,6,0,B|200:243|184:202|151:179|116:176,1,140,2|0,0:0|0:0,0:0:0:0:
148,372,21937,1,0,0:0:0:0:
242,346,22171,1,0,0:0:0:0:
337,369,22406,1,0,0:0:0:0:
404,298,22640,1,0,0:0:0:0:
344,220,22875,6,0,L|274:223,1,70,2|0,0:0|0:0,0:0:0:0:
138,272,23343,2,0,L|207:268,1,70,,,0:0:0:0:
160,184,23812,2,0,L|90:187,1,70,,,0:0:0:0:
20,257,24281,1,0,0:0:0:0:
71,340,24515,5,0,3:0:0:0:
71,340,24632,1,0,3:0:0:0:
71,340,24750,2,0,B|95:332|119:334|140:342,1,70,2|0,3:2|0:0,0:0:0:0:
238,342,25218,2,0,B|261:351|285:351|306:344,1,70,0|0,3:0|1:0,0:0:0:0:
384,284,25687,1,0,3:0:0:0:
384,186,25921,1,0,3:0:0:0:
314,116,26156,2,0,B|279:152|277:205|304:243,1,140,0|2,1:0|0:2,0:0:0:0:
384,284,26859,5,0,0:0:0:0:
453,214,27093,2,0,L|450:144,1,70,2|0,3:2|0:0,0:0:0:0:
416,108,27445,2,0,B|382:123|346:125|313:116,1,105,0|0,3:0|0:0,3:0:0:0:
244,185,28031,2,0,L|247:255,1,70,0|0,1:0|0:0,0:0:0:0:
252,352,28500,5,2,3:2:0:0:
160,320,28734,2,0,L|126:308,2,35,0|0|0,0:0|0:0|3:0,0:0:0:0:
252,352,29203,1,0,1:0:0:0:
344,320,29437,2,0,B|371:292|372:248|348:217|315:206,1,140,0|0,3:0|3:0,0:0:0:0:
227,249,30140,1,0,0:0:0:0:
160,320,30375,6,0,B|136:328|112:326|91:318,1,70,2|0,0:0|0:0,0:0:0:0:
129,227,30843,2,0,B|106:215|90:197|81:176,1,70,2|0,3:2|1:0,0:0:0:0:
172,139,31312,2,0,B|164:115|166:91|174:70,1,70,2|0,3:2|3:0,0:0:0:0:
256,16,31781,1,2,3:2:0:0:
338,70,32015,5,0,3:0:0:0:
338,70,32132,1,0,3:0:0:0:
338,70,32250,2,0,B|347:93|347:118|340:139,1,70,2|0,3:2|0:0,0:0:0:0:
256,192,32718,1,0,3:0:0:0:
256,192,32953,2,0,B|225:234|232:291|268:324,1,140,0|0,1:0|0:0,0:0:0:0:
334,252,33656,2,0,B|363:225|407:225|439:249|450:282,1,140,0|2,3:0|0:0,0:0:0:0:
370,339,34359,6,0,L|383:302,2,35,0|0|0,0:0|0:0|3:0,0:0:0:0:
280,376,34828,1,0,3:0:0:0:
192,332,35062,2,0,L|122:329,1,70,0|0,3:0|3:0,0:0:0:0:
36,376,35531,2,0,B|73:363|94:325|88:286|65:261,1,140,0|2,1:0|3:2,0:0:0:0:
64,260,36234,5,0,0:0:0:0:
133,191,36468,2,0,L|203:188,1,70,0|0,3:0|1:0,0:0:0:0:
320,160,36937,1,0,3:0:0:0:
320,160,37171,2,0,B|299:174|287:196|283:218,2,70,0|0|0,0:0|1:0|0:0,0:0:0:0:
72,76,39750,6,0,L|144:96,1,70,4|0,3:2|0:0,0:0:0:0:
237,94,40218,1,0,1:0:0:0:
237,94,40453,1,2,3:2:0:0:
84,176,40687,2,0,B|73:198|72:223|80:244,1,70,0|0,3:0|0:0,0:0:0:0:
140,360,41156,2,0,B|151:338|152:313|144:292,1,70,0|2,1:0|0:0,0:0:0:0:
64,322,41625,5,0,3:0:0:0:
64,322,41859,1,0,0:0:0:0:
228,308,42093,2,0,L|298:311,1,70,0|2,1:0|0:0,0:0:0:0:
388,272,42562,2,0,B|399:250|400:225|392:204,1,70,0|0,3:0|0:0,0:0:0:0:
348,116,43031,1,0,1:0:0:0:
256,152,43265,1,2,0:0:0:0:
164,116,43500,6,0,B|153:94|152:69|160:48,1,70,0|0,3:0|0:0,0:0:0:0:
256,152,43968,2,0,B|267:174|268:199|260:220,1,70,0|2,1:0|0:0,0:0:0:0:
224,312,44437,1,0,3:0:0:0:
224,312,44671,1,0,0:0:0:0:
320,300,44906,2,0,B|344:294|368:300|386:313,1,70,0|2,1:0|0:0,0:0:0:0:
484,313,45375,6,0,B|498:292|501:268|497:246,1,70,0|0,3:0|0:0,0:0:0:0:
468,152,45843,1,0,1:0:0:0:
468,152,46078,1,2,0:0:0:0:
376,188,46312,1,0,3:0:0:0:
376,188,46546,1,0,3:0:0:0:
284,156,46781,2,0,L|214:153,1,70,0|2,1:0|0:3,0:0:0:0:
128,200,47250,6,0,B|102:228|100:271|123:303|155:315,1,140,0|0,3:0|1:0,0:0:0:0:
256,316,47953,1,2,3:2:0:0:
325,246,48187,2,0,B|336:224|337:199|329:178,1,70,0|0,3:0|0:0,0:0:0:0:
269,62,48656,2,0,B|258:84|257:109|265:130,1,70,0|2,1:0|0:0,0:0:0:0:
345,100,49125,5,0,3:0:0:0:
345,100,49359,1,0,0:0:0:0:
181,114,49593,2,0,L|178:184,1,70,0|2,1:0|0:0,0:0:0:0:
173,311,50062,1,0,3:0:0:0:
173,311,50531,2,0,B|195:300|220:299|241:307,1,70,0|2,1:0|0:0,0:0:0:0:
360,352,51000,6,0,B|398:358|434:336|448:300|441:267,1,140,0|0,3:0|1:0,0:0:0:0:
392,180,51703,1,2,0:0:0:0:
300,212,51937,2,0,B|289:234|288:259|296:280,1,70,0|0,3:0|0:0,0:0:0:0:
392,180,52406,2,0,B|403:158|404:133|396:112,1,70,0|2,1:0|0:0,0:0:0:0:
344,28,52875,5,0,3:0:0:0:
344,28,53109,1,2,0:0:0:0:
252,56,53343,2,0,L|182:59,1,70,0|2,1:0|0:0,0:0:0:0:
248,344,54281,6,0,B|271:353|296:352|316:342,1,70,8|0,3:0|0:0,0:0:0:0:
392,280,54750,6,0,L|407:130,1,140,4|8,3:2|0:0,0:0:0:0:
360,56,55453,1,2,3:2:0:0:
276,104,55687,2,0,B|254:115|229:116|208:108,1,70,0|0,3:0|0:0,0:0:0:0:
64,72,56156,2,0,B|86:61|111:60|132:68,1,70,8|2,0:0|3:2,0:0:0:0:
104,160,56625,6,0,L|89:310,1,140,0|8,3:0|0:0,0:0:0:0:
136,384,57328,1,2,3:2:0:0:
220,336,57562,2,0,B|242:325|267:324|288:332,1,70,0|0,3:0|0:0,0:0:0:0:
380,368,58031,2,0,B|403:377|427:374|447:363,1,70,8|2,0:0|3:2,0:0:0:0:
504,284,58500,5,0,3:0:0:0:
504,284,58734,1,0,3:0:0:0:
404,206,58968,2,0,L|408:276,1,70,8|2,0:0|3:2,0:0:0:0:
484,168,59437,2,0,B|473:145|454:130|433:122,1,70,0|0,3:0|0:0,0:0:0:0:
336,136,59906,2,0,B|314:147|289:148|268:140,1,70,8|2,0:0|3:2,0:0:0:0:
169,140,60375,6,0,B|137:162|127:203|143:239|171:257,1,140,0|8,3:0|0:0,0:0:0:0:
268,235,61078,2,0,B|254:215|233:202|211:198,1,70,2|0,3:2|3:0,0:0:0:0:
76,328,61546,2,0,B|98:316|122:315|143:323,1,70,0|8,0:0|0:0,0:0:0:0:
240,352,62015,1,2,3:0:0:0:
336,376,62250,6,0,B|375:372|404:341|407:302|392:272,1,140,0|8,3:0|0:0,0:0:0:0:
324,200,62953,1,2,3:2:0:0:
228,208,63187,2,0,L|152:232,1,70,0|0,3:0|0:0,0:0:0:0:
48,140,63656,2,0,L|124:164,1,70,8|2,0:0|3:2,0:0:0:0:
192,296,64125,6,0,B|158:314|116:305|91:276|86:242,1,140,0|8,3:0|0:0,0:0:0:0:
84,144,64828,1,2,3:2:0:0:
160,84,65062,2,0,B|182:73|207:72|228:80,1,70,0|0,3:0|0:0,0:0:0:0:
352,140,65531,2,0,B|330:151|305:152|284:144,1,70,8|2,0:0|3:2,0:0:0:0:
314,64,66000,5,0,3:0:0:0:
314,64,66234,1,0,3:0:0:0:
444,100,66468,2,0,L|447:170,1,70,8|2,0:0|3:2,0:0:0:0:
444,268,66937,2,0,B|407:234|350:240|319:278,1,140,0|8,3:0|0:0,0:0:0:0:
240,336,67640,1,2,3:2:0:0:
152,292,67875,6,0,B|141:270|140:245|148:224,1,70,0|2,3:0|0:0,0:0:0:0:
208,100,68344,2,0,B|219:122|220:147|212:168,1,70,8|2,0:0|0:0,0:0:0:0:
132,138,68813,1,0,3:0:0:0:
63,69,69046,1,2,0:0:0:0:
132,138,69281,1,8,0:0:0:0:
62,207,69515,1,2,3:0:0:0:
103,295,69750,6,0,B|127:339|184:351|224:322,1,140,2|0,0:0|0:0,0:0:0:0:
296,140,70687,1,0,0:0:0:0:
367,322,71156,2,0,B|389:333|414:334|435:326,1,70,,,0:0:0:0:
328,250,71625,6,0,B|284:273|272:330|301:370,1,140,2|0,0:0|0:0,0:0:0:0:
367,322,72328,1,0,0:0:0:0:
424,244,72562,2,0,L|420:174,1,70,,,0:0:0:0:
411,76,73031,1,0,0:0:0:0:
411,76,73265,1,0,0:0:0:0:
280,152,73500,5,2,0:0:0:0:
280,152,73734,2,0,B|258:163|233:164|212:156,1,70,,,0:0:0:0:
123,114,74203,1,0,0:0:0:0:
166,259,74437,1,0,0:0:0:0:
166,259,74906,2,0,L|237:278,1,70,,,0:0:0:0:
358,239,75375,6,0,B|338:254|328:277|328:300,1,70,2|0,0:0|0:0,0:0:0:0:
366,154,75843,2,0,B|341:152|318:160|301:175,1,70,2|0,0:0|0:0,0:0:0:0:
431,99,76312,2,0,B|415:80|393:70|370:68,1,70,2|0,0:0|0:0,0:0:0:0:
232,64,76781,1,2,0:0:0:0:
188,152,77015,1,2,0:0:0:0:
231,239,77250,6,0,B|232:278|206:312|168:322|136:311,1,140,2|0,0:0|0:0,0:0:0:0:
68,128,78187,1,0,0:0:0:0:
260,156,78656,2,0,L|332:144,1,70,,,0:0:0:0:
427,144,79125,6,0,B|454:171|458:213|439:246|410:262,1,140,2|0,0:0|0:0,0:0:0:0:
312,276,79828,1,0,0:0:0:0:
224,316,80062,2,0,B|213:338|212:363|220:384,2,70,,,0:0:0:0:
336,156,81000,6,0,B|347:134|348:109|340:88,1,70,2|0,0:0|0:0,0:0:0:0:
270,18,81468,2,0,L|200:29,1,70,,,0:0:0:0:
131,98,81937,1,0,0:0:0:0:
169,188,82171,2,0,B|178:211|175:235|164:255,2,70,,,0:0:0:0:
101,294,82875,6,0,B|120:327|159:341|196:332|218:308,1,140,2|0,0:0|0:0,0:0:0:0:
290,235,83578,2,0,B|315:206|357:199|391:216|408:245,1,140,,,0:0:0:0:
444,340,84281,1,0,0:0:0:0:
219,274,84750,6,0,B|201:242|207:203|230:178,1,105,2|0,3:2|0:0,0:0:0:0:
266,141,85218,2,0,B|277:119|278:95|271:74,1,70,0|0,3:0|1:0,0:0:0:0:
184,24,85687,1,0,3:0:0:0:
100,74,85921,1,0,3:0:0:0:
125,168,86156,2,0,B|143:200|137:239|114:264,1,105,0|0,1:0|0:0,0:0:0:0:
112,314,86625,6,0,B|124:336|145:349|168:352,1,70,2|0,0:0|0:0,0:0:0:0:
264,336,87093,2,0,B|286:325|311:326|331:335,1,70,2|0,3:2|0:0,0:0:0:0:
424,372,87562,1,0,3:0:0:0:
424,372,87796,1,0,0:0:0:0:
344,252,88031,2,0,L|352:168,1,70,0|0,1:0|0:0,0:0:0:0:
396,96,88500,6,0,B|389:56|354:27|313:25|282:42,1,140,2|0,3:2|3:0,0:0:0:0:
219,108,89203,1,0,1:0:0:0:
149,177,89437,2,0,B|113:192|73:182|48:153|41:121,1,140,0|0,3:0|3:0,0:0:0:0:
118,105,90140,1,0,0:0:0:0:
192,251,90375,6,0,B|201:275|201:300|194:323,1,70,2|0,0:0|0:0,0:0:0:0:
256,200,90843,2,0,L|256:120,1,70,2|0,3:2|1:0,0:0:0:0:
319,250,91312,2,0,B|310:273|310:297|315:319,1,70,2|0,3:2|3:0,0:0:0:0:
396,374,91781,1,2,3:2:0:0:
477,319,92015,5,0,3:0:0:0:
477,319,92132,1,0,3:0:0:0:
477,319,92250,2,0,B|484:295|482:271|474:249,1,70,2|0,3:2|0:0,0:0:0:0:
397,189,92718,1,0,3:0:0:0:
319,250,92953,1,0,1:0:0:0:
237,197,93187,2,0,L|162:190,1,70,0|0,3:0|0:0,0:0:0:0:
228,328,93656,2,0,B|266:337|304:319|322:285|319:251,1,140,0|2,3:0|0:0,0:0:0:0:
304,152,94359,5,0,0:0:0:0:
220,32,94593,2,0,B|211:55|211:79|217:101,1,70,2|0,3:2|0:0,0:0:0:0:
188,140,94945,2,0,B|152:152|116:151|83:140,1,105,0|0,3:0|0:0,0:0:0:0:
15,209,95531,2,0,L|23:289,1,70,0|0,1:0|0:0,0:0:0:0:
91,348,96000,6,0,B|117:338|143:338|168:344,1,70,2|0,3:2|0:0,0:0:0:0:
257,342,96468,2,0,B|281:347|305:344|326:336,1,70,0|0,3:0|1:0,0:0:0:0:
448,248,96937,1,0,3:0:0:0:
448,248,97171,2,0,B|424:242|400:244|378:253,1,70,0|0,0:0|1:0,0:0:0:0:
256,224,97640,1,0,0:0:0:0:
256,224,97757,1,0,3:0:0:0:
256,224,97875,6,0,B|244:176|200:172|184:152|176:104|232:64|272:104|272:104|308:68|368:100|360:164|312:168,1,350,0|0,3:0|0:0,0:0:0:0:
256,224,99281,1,0,0:0:0:0:
32,368,99750,6,0,B|21:346|20:321|28:300,1,70,4|0,3:2|0:0,0:0:0:0:
64,208,100218,1,0,1:0:0:0:
64,208,100453,1,2,3:2:0:0:
156,240,100687,2,0,L|236:264,1,70,0|0,3:0|0:0,0:0:0:0:
360,192,101156,2,0,L|280:216,1,70,0|2,1:0|0:0,0:0:0:0:
164,328,101625,5,0,3:0:0:0:
164,328,101859,1,0,0:0:0:0:
224,176,102093,2,0,B|229:151|223:128|210:109,1,70,0|2,1:0|0:0,0:0:0:0:
232,280,102562,2,0,B|250:297|274:303|296:301,1,70,0|0,3:0|0:0,0:0:0:0:
392,276,103031,1,0,1:0:0:0:
440,192,103265,1,2,0:0:0:0:
370,122,103500,6,0,B|348:111|323:110|302:118,1,70,0|0,3:0|0:0,0:0:0:0:
156,171,103968,2,0,B|178:183|203:184|224:176,1,70,0|2,1:0|0:0,0:0:0:0:
195,96,104437,1,0,3:0:0:0:
195,96,104671,1,0,0:0:0:0:
80,132,104906,2,0,B|69:154|68:179|76:200,1,70,0|2,1:0|0:0,0:0:0:0:
180,288,105375,6,0,B|197:270|220:261|243:262,1,70,0|0,3:0|0:0,0:0:0:0:
340,257,105843,1,0,1:0:0:0:
340,257,106078,1,2,0:0:0:0:
282,177,106312,1,0,3:0:0:0:
350,107,106546,1,0,3:0:0:0:
255,81,106781,2,0,L|187:62,1,70,0|2,1:0|0:3,0:0:0:0:
118,131,107250,6,0,B|97:168|108:214|143:239|180:239,1,140,0|0,3:0|1:0,0:0:0:0:
264,212,107953,1,2,3:2:0:0:
240,308,108187,2,0,L|224:376,1,70,0|0,3:0|0:0,0:0:0:0:
264,212,108656,2,0,L|280:144,1,70,0|2,1:0|0:0,0:0:0:0:
308,48,109125,5,0,3:0:0:0:
308,48,109359,1,0,0:0:0:0:
400,80,109593,2,0,B|411:102|412:127|404:148,1,70,0|2,1:0|0:0,0:0:0:0:
331,216,110062,2,0,B|310:203|285:203|264:212,1,70,0|0,3:0|0:0,0:0:0:0:
92,292,110531,2,0,B|114:280|138:279|159:287,1,70,0|2,1:0|0:0,0:0:0:0:
280,348,111000,6,0,B|313:375|361:369|390:335|392:298,1,140,0|0,3:0|1:0,0:0:0:0:
390,210,111703,1,2,0:0:0:0:
320,140,111937,2,0,B|298:129|273:128|252:136,1,70,0|0,3:0|0:0,0:0:0:0:
390,210,112406,2,0,B|412:221|437:222|458:214,1,70,0|2,1:0|0:0,0:0:0:0:
282,219,112875,6,0,L|275:295,1,70,0|2,3:0|0:0,0:0:0:0:
390,210,113343,2,0,L|396:140,1,70,0|2,1:0|0:0,0:0:0:0:
404,44,113812,1,2,3:2:0:0:
226,127,114281,2,0,B|204:138|179:139|158:131,1,70,8|0,3:0|0:0,0:0:0:0:
59,131,114750,6,0,L|74:284,1,140,4|8,3:2|0:0,0:0:0:0:
72,368,115453,1,2,3:2:0:0:
156,320,115687,2,0,B|178:309|203:308|224:316,1,70,0|0,3:0|0:0,0:0:0:0:
320,340,116156,2,0,B|343:349|367:346|387:335,1,70,8|2,0:0|3:2,0:0:0:0:
457,266,116625,5,0,3:0:0:0:
457,266,116859,1,0,3:0:0:0:
387,196,117093,2,0,B|376:174|375:149|383:128,1,70,8|2,0:0|3:2,0:0:0:0:
480,20,117562,2,0,B|466:40|445:53|423:57,1,70,0|0,3:0|0:0,0:0:0:0:
324,48,118031,1,8,0:0:0:0:
228,24,118265,1,2,3:2:0:0:
158,92,118500,6,0,B|144:128|156:168|187:192|220:196,1,140,0|8,3:0|0:0,0:0:0:0:
316,176,119203,1,2,3:2:0:0:
221,196,119437,2,0,L|196:272,1,70,0|0,3:0|0:0,0:0:0:0:
316,176,119906,2,0,L|338:109,1,70,8|2,0:0|3:2,0:0:0:0:
292,264,120375,6,0,B|315:295|355:306|391:293|412:267,1,140,0|8,3:0|0:0,0:0:0:0:
452,176,121078,2,0,L|429:109,1,70,2|0,3:2|3:0,0:0:0:0:
292,264,121546,2,0,L|269:330,1,70,0|8,0:0|0:0,0:0:0:0:
180,368,122015,1,2,3:0:0:0:
84,348,122250,6,0,B|52:325|42:284|58:248|87:230,1,140,0|8,3:0|0:0,0:0:0:0:
184,208,122953,1,2,3:2:0:0:
292,264,123187,2,0,B|314:275|339:276|360:268,1,70,0|0,3:0|0:0,0:0:0:0:
444,220,123656,1,8,0:0:0:0:
444,220,123890,1,2,3:2:0:0:
374,150,124125,6,0,B|363:128|362:103|370:82,1,70,0|0,3:0|0:0,0:0:0:0:
444,220,124593,2,0,B|455:242|456:267|448:288,1,70,8|2,0:0|3:2,0:0:0:0:
378,357,125062,1,0,3:0:0:0:
288,316,125296,1,0,0:0:0:0:
208,372,125531,2,0,B|184:381|160:380|139:370,1,70,8|2,0:0|3:2,0:0:0:0:
60,312,126000,5,0,3:0:0:0:
60,312,126234,1,0,3:0:0:0:
129,242,126468,2,0,L|133:158,1,70,8|2,0:0|3:2,0:0:0:0:
62,102,126937,2,0,B|99:136|156:130|187:92,1,140,0|8,3:0|0:0,0:0:0:0:
256,22,127640,1,2,3:2:0:0:
325,91,127875,6,0,B|336:113|337:138|329:159,1,70,0|2,3:0|0:0,0:0:0:0:
269,283,128344,2,0,B|258:261|257:236|265:215,1,70,8|2,0:0|0:0,0:0:0:0:
345,245,128813,1,0,3:0:0:0:
414,314,129046,1,2,0:0:0:0:
345,245,129281,1,8,0:0:0:0:
415,176,129515,2,0,L|424:92,1,70,2|2,3:0|0:0,0:0:0:0:
216,184,130453,6,0,B|183:203|145:205|112:192,1,105.000004005432,2|0,0:0|0:0,0:0:0:0:
62,245,131156,2,0,L|66:305,1,52.5000020027161,2|0,0:0|0:0,0:0:0:0:
117,349,131625,6,0,B|150:330|188:328|221:341,1,105.000004005432,,,0:0:0:0:
292,340,132328,2,0,B|327:352|363:347|393:331,1,105.000004005432,,,0:0:0:0:
445,278,133031,2,0,L|441:225,1,52.5000020027161,,,0:0:0:0:
389,173,133500,6,0,B|354:160|317:165|287:181,1,105.000004005432,2|0,0:0|0:0,0:0:0:0:
235,234,134203,2,0,B|202:252|165:254|133:242,1,105.000004005432,2|0,0:0|0:0,0:0:0:0:
59,242,134906,1,2,0:0:0:0:
59,242,135375,6,0,B|71:206|66:170|50:140,1,105.000004005432,2|0,0:0|0:0,0:0:0:0:
102,88,136078,1,0,0:0:0:0:
153,36,136312,2,0,B|186:17|224:15|257:28,1,105.000004005432,0|0,3:0|0:0,0:0:0:0:
306,79,137015,2,0,L|309:131,1,52.5000020027161,0|2,0:0|0:0,0:0:0:0:
205,235,137718,6,0,L|201:182,1,52.5000020027161,0|2,0:0|0:0,0:0:0:0:
320,268,138421,2,0,L|323:320,1,52.5000020027161,0|2,0:0|0:0,0:0:0:0:
271,372,138890,1,0,0:0:0:0:
197,372,139125,6,0,B|162:359|125:364|95:380,1,105.000004005432,,,0:0:0:0:
43,328,139828,2,0,B|24:295|22:258|34:226,1,105.000004005432,,,0:0:0:0:
86,174,140531,2,0,L|82:121,1,52.5000020027161,,,0:0:0:0:
134,69,141000,6,0,B|169:81|205:76|235:60,1,105.000004005432,2|0,0:0|0:0,0:0:0:0:
309,60,141703,2,0,B|327:93|329:129|317:161,1,105.000004005432,2|0,0:0|0:0,0:0:0:0:
265,213,142406,2,0,L|268:265,1,52.5000020027161,2|0,3:2|0:0,0:0:0:0:
272,340,142875,1,2,0:0:0:0:
180,56,144750,6,0,L|160:196,1,140,2|0,3:2|0:0,0:0:0:0:
160,292,145453,1,2,0:0:0:0:
160,292,145687,2,0,B|204:262|264:275|291:319,1,140,2|0,3:2|0:0,0:0:0:0:
372,356,146390,5,2,0:0:0:0:
372,356,146507,1,2,0:0:0:0:
372,356,146625,2,0,B|421:349|454:305|451:258,1,140,2|0,3:2|0:0,0:0:0:0:
412,168,147328,1,2,0:0:0:0:
324,208,147562,2,0,B|313:230|312:255|320:276,1,70,2|0,3:2|0:0,0:0:0:0:
412,168,148031,2,0,B|423:146|424:121|416:100,1,70,,,0:0:0:0:
317,100,148500,6,0,B|277:130|222:122|191:87,1,140,2|0,3:2|0:0,0:0:0:0:
121,17,149203,1,2,0:0:0:0:
68,100,149437,2,0,L|60:172,1,70,0|0,3:0|0:0,0:0:0:0:
129,239,149906,2,0,L|137:311,2,70,2|0|0,3:2|0:0|0:0,0:0:0:0:
72,72,159750,6,0,L|88:152,1,70,8|0,3:0|0:0,0:0:0:0:
108,236,160218,1,2,0:0:0:0:
108,236,160687,2,0,B|131:225|155:226|176:235,1,70,2|0,3:2|0:0,0:0:0:0:
268,268,161156,2,0,B|291:277|315:276|336:267,1,70,2|0,3:2|0:0,0:0:0:0:
420,216,161625,5,0,3:0:0:0:
420,216,161859,1,0,3:0:0:0:
350,146,162093,2,0,L|340:60,1,70,2|0,3:2|0:0,0:0:0:0:
420,216,162562,2,0,L|428:285,1,70,2|0,3:2|0:0,0:0:0:0:
358,355,163031,2,0,B|335:365|310:364|289:355,1,70,2|0,3:2|0:0,0:0:0:0:
198,323,163500,6,0,B|175:313|150:314|129:323,1,70,2|0,3:2|3:0,0:0:0:0:
40,360,163968,1,2,3:2:0:0:
40,360,164203,1,0,3:0:0:0:
68,268,164437,2,0,L|58:182,1,70,2|0,3:2|3:0,0:0:0:0:
20,108,164906,1,2,3:2:0:0:
20,108,165141,1,0,3:0:0:0:
116,132,165375,5,2,3:2:0:0:
116,132,165610,1,0,3:0:0:0:
212,64,165843,1,2,3:2:0:0:
88,40,166078,1,0,1:0:0:0:
256,360,167250,6,0,B|279:370|303:369|324:360,1,70,4|0,3:2|0:0,0:0:0:0:
408,308,167718,1,8,0:0:0:0:
408,308,167953,1,2,3:2:0:0:
338,238,168187,2,0,B|328:215|329:190|338:169,1,70,0|0,3:0|0:0,0:0:0:0:
400,44,168656,2,0,B|409:67|408:91|399:112,1,70,8|2,0:0|3:2,0:0:0:0:
322,78,169125,5,0,3:0:0:0:
322,78,169360,1,0,3:0:0:0:
232,40,169593,2,0,B|209:30|184:31|163:40,1,70,8|2,0:0|3:2,0:0:0:0:
28,88,170062,2,0,B|51:98|76:97|97:88,1,70,0|0,3:0|0:0,0:0:0:0:
236,144,170531,2,0,B|213:154|188:153|167:144,1,70,8|0,0:0|3:2,0:0:0:0:
76,184,171000,6,0,L|61:334,1,140,0|8,3:0|0:0,0:0:0:0:
62,323,171703,1,2,3:2:0:0:
156,300,171937,2,0,B|179:290|204:291|225:300,1,70,0|0,3:0|0:0,0:0:0:0:
364,256,172406,2,0,B|341:246|316:247|295:256,1,70,8|2,0:0|3:2,0:0:0:0:
372,328,172875,6,0,B|410:323|439:292|442:253|427:223,1,140,0|8,3:0|0:0,0:0:0:0:
357,152,173578,2,0,L|281:176,1,70,2|0,3:2|3:0,0:0:0:0:
177,84,174047,2,0,L|253:108,1,70,0|8,0:0|0:0,0:0:0:0:
321,240,174515,1,2,3:0:0:0:
264,320,174750,6,0,B|230:338|188:329|163:300|158:266,1,140,0|8,3:0|0:0,0:0:0:0:
176,168,175453,1,2,3:2:0:0:
274,182,175687,2,0,L|350:190,1,70,0|0,3:0|0:0,0:0:0:0:
176,168,176156,2,0,L|106:160,1,70,8|2,0:0|3:2,0:0:0:0:
36,230,176625,5,0,3:0:0:0:
105,299,176859,1,0,0:0:0:0:
194,262,177093,2,0,B|217:252|242:253|263:262,1,70,8|2,0:0|3:2,0:0:0:0:
352,296,177562,2,0,B|375:305|399:304|420:295,1,70,0|0,3:0|0:0,0:0:0:0:
489,226,178031,2,0,L|492:156,1,70,8|2,0:0|3:2,0:0:0:0:
392,71,178500,6,0,L|386:211,1,140,0|8,3:0|0:0,0:0:0:0:
380,308,179203,1,2,3:2:0:0:
288,276,179437,2,0,B|265:266|240:267|219:276,1,70,0|0,3:0|0:0,0:0:0:0:
128,244,179906,2,0,B|119:221|119:196|127:175,1,70,8|2,0:0|3:2,0:0:0:0:
197,106,180375,5,0,3:0:0:0:
292,128,180609,2,0,L|361:118,1,70,2|8,0:0|0:0,0:0:0:0:
452,84,181078,1,2,3:2:0:0:
368,200,181312,2,0,B|358:223|359:247|368:268,1,70,0|2,3:0|0:0,0:0:0:0:
476,368,181781,2,0,B|460:348|438:337|416:334,1,70,8|2,0:0|3:2,0:0:0:0:
280,352,182250,6,0,B|257:362|232:361|211:352,1,70,4|0,3:2|0:0,0:0:0:0:
124,308,182718,1,8,0:0:0:0:
124,308,182953,1,2,3:2:0:0:
172,224,183187,2,0,L|168:154,1,70,0|0,3:0|0:0,0:0:0:0:
160,56,183656,1,8,0:0:0:0:
160,56,183891,1,2,3:2:0:0:
252,88,184125,6,0,B|275:98|299:97|320:87,1,70,0|0,3:0|0:0,0:0:0:0:
408,44,184593,1,8,0:0:0:0:
340,168,184828,2,0,B|329:190|330:215|340:236,1,70,2|0,3:2|3:0,0:0:0:0:
404,356,185296,2,0,B|414:333|413:308|403:287,1,70,0|8,0:0|0:0,0:0:0:0:
288,296,185765,1,2,3:2:0:0:
196,328,186000,6,0,B|173:338|148:337|127:328,1,70,0|0,3:0|0:0,0:0:0:0:
40,284,186468,1,8,0:0:0:0:
40,284,186703,1,2,3:2:0:0:
109,214,186937,2,0,B|119:191|118:166|109:145,1,70,0|0,3:0|0:0,0:0:0:0:
16,40,187406,2,0,B|30:60|52:72|74:74,1,70,8|2,0:0|3:2,0:0:0:0:
173,74,187875,6,0,B|209:39|262:37|300:64,1,140,0|8,3:0|0:0,0:0:0:0:
399,65,188578,2,0,B|422:55|439:37|447:16,1,70,2|0,3:2|3:0,0:0:0:0:
352,148,189046,2,0,B|349:172|356:195|369:213,1,70,0|8,0:0|0:0,0:0:0:0:
444,280,189515,1,2,3:0:0:0:
300,256,189750,6,0,L|230:254,1,70,0|0,3:0|0:0,0:0:0:0:
132,260,190218,1,8,0:0:0:0:
132,260,190453,1,2,3:2:0:0:
172,172,190687,2,0,B|182:149|181:124|172:103,1,70,0|0,3:0|0:0,0:0:0:0:
132,260,191156,2,0,B|121:283|122:307|131:328,1,70,8|2,0:0|3:2,0:0:0:0:
220,372,191625,5,0,3:0:0:0:
304,324,191859,1,0,0:0:0:0:
392,368,192093,2,0,B|415:378|439:377|460:368,1,70,8|2,0:0|3:2,0:0:0:0:
424,220,192562,2,0,L|426:290,1,70,0|0,3:0|0:0,0:0:0:0:
512,176,193031,2,0,L|510:106,1,70,8|2,0:0|3:2,0:0:0:0:
404,28,193500,6,0,B|373:4|331:6|301:31|290:63,1,140,0|8,3:0|0:0,0:0:0:0:
268,160,194203,1,2,3:2:0:0:
245,255,194437,2,0,B|233:292|197:314|159:311|132:292,1,140,0|8,3:0|0:0,0:0:0:0:
56,228,195140,1,2,3:2:0:0:
164,162,195375,6,0,L|176:232,1,70,0|2,3:0|0:0,0:0:0:0:
76,140,195843,2,0,L|69:95,3,35,0|0|0|0,1:0|0:0|0:0|0:0,0:0:0:0:
105,70,196312,2,0,L|150:63,3,35,,,0:0:0:0:
184,88,196781,2,0,L|229:81,3,35,,,0:0:0:0:
264,100,197250,5,4,3:2:0:0:
